#TITLE:Black Trinity;
#SUBTITLE:;
#ARTIST:天原神音;
#TITLETRANSLIT:;
#SUBTITLETRANSLIT:;
#ARTISTTRANSLIT:;
#CREDIT:;
#BANNER:Black Trinity_logo.jpg;
#BACKGROUND:Black Trinity_bg.jpg;
#LYRICSPATH:;
#CDTITLE:Lan.png;
#MUSIC:Black Trinity.mp3;
#OFFSET:-0.080;
#SAMPLESTART:46.154;
#SAMPLELENGTH:12.000;
#SELECTABLE:YES;
#BPMS:0.000=130.000;
#STOPS:;
#BGCHANGES:;
// cache tags:
#FIRSTBEAT:8.000;
#LASTBEAT:236.000;
#SONGFILENAME:Songs/lan sky/Black Trinity/Black Trinity.sm;
#HASMUSIC:1;
#HASBANNER:1;
#MUSICLENGTH:109.694;
// end cache tags

//---------------dance-single - sky----------------
#NOTES:
     dance-single:
     sky:
     Hard:
     10:
     0.836,1.000,0.848,0.164,0.989,530.000,93.000,18.000,0.000,2.000:

0000
0000
0000
0000
,
0000
0000
0000
0000
,
0200
0000
0000
0000
,
0000
0000
0000
0000
0000
0000
0000
0000
0000
0000
0000
0000
0000
0000
0000
0300
,
0002
0000
0010
0000
,
1000
0000
0000
0000
0000
0000
0000
0000
0100
0000
0000
0000
0000
0000
1000
0003
,
1020
0000
0001
0000
,
1000
0000
0000
0000
0000
0000
0000
0000
0000
0000
0000
0000
0000
0000
0100
0030
,
2001
0000
0100
0000
,
0001
0000
0000
0000
0000
0000
0000
0000
0100
0000
0000
0000
0000
0000
0010
3000
,
0102
0000
1000
0000
,
0010
0000
0000
0000
0000
0000
0000
0000
0003
0000
0000
0000
0001
0010
0100
1000
,
1001
0101
1010
0110
,
1001
0000
0000
0000
1010
0000
0000
0000
0101
0000
0000
0000
1000
0010
0101
0010
,
1001
1100
0101
0011
,
1010
0000
0000
0000
0110
0000
0000
0000
0101
0000
0000
0000
0001
0010
0101
0010
,
1100
0011
0101
1001
,
1010
0000
0000
0000
0110
0000
0000
0000
0011
0000
0000
0000
0100
0010
1001
0100
,
0011
0000
0000
0100
1010
0000
0100
0000
0011
0000
0000
1000
0101
0000
0010
0000
,
0001
0000
0100
0000
0001
0000
0100
0000
0001
0000
0100
0000
0001
0000
0100
0000
0010
0100
1000
0100
0010
0001
0010
0100
1000
0100
0010
0001
0100
0010
0001
0010
,
1100
0000
0000
0010
0101
0000
0010
0000
1100
0000
0000
0010
1001
0000
0100
0000
,
0011
0000
0000
0100
1010
0000
0100
0000
1001
0000
0000
0010
0101
0010
1100
0010
,
1001
0000
0000
0100
0011
0000
0100
0000
1010
0000
0000
0100
1001
0000
0010
0000
,
1100
0000
0000
0010
0101
0000
0010
0000
1001
0000
0000
0100
0011
0100
1010
0100
,
1001
0000
0000
0100
0011
0000
0100
0000
1010
0000
0000
0100
1001
0000
0010
0000
,
0101
0000
0000
0010
1100
0000
0010
0000
1001
0000
0000
0100
0011
0100
1001
0010
,
1100
0000
0000
0010
0101
0000
0010
0000
1001
0000
0000
0100
0011
0000
0100
0000
,
0010
0000
0100
0000
0010
0000
0100
0000
0010
0000
0100
0000
0010
0000
0100
0000
0001
0010
0100
1000
0100
0010
0001
0010
0100
1000
0100
0010
0001
0010
0100
1000
,
0011
0000
0000
0100
1001
0000
0010
0000
1100
0000
0000
0010
0100
0010
0001
0010
,
1000
0100
0010
0100
0001
0010
0100
1000
0010
0001
0100
0010
0001
0010
0100
0010
,
1000
0001
0100
1000
0010
0100
0010
0001
0010
0100
1000
0010
0100
1000
0100
0010
,
0001
0100
0010
0100
1000
0010
0001
0100
1000
0010
0001
0100
0010
1000
0100
0010
,
1001
0000
0000
0000
0010
0100
0010
0001
0010
0100
1000
0100
0010
0100
1000
0100
,
0010
0001
0100
0010
0001
0010
0100
1000
0010
0100
1000
0100
0010
0001
0100
0010
,
0001
0010
0100
1000
0010
0100
0010
0001
1000
0100
0010
0001
0010
0100
0010
0100
,
1000
0000
0100
0000
0010
0000
0001
0000
0100
0000
0010
0000
0001
0000
0010
0000
0100
0000
1000
0000
0100
0000
0010
0000
0001
0010
0100
1000
0100
0010
0001
0010
,
1100
0000
0010
0000
0101
0000
0010
0100
0010
0100
0010
0000
1001
0000
0000
0000
,
1010
0000
1010
0000
0101
0000
0010
1000
0010
1000
0010
0000
0001
0010
1100
0010
,
0101
0000
0011
0000
1100
0000
0001
0100
0001
0100
0001
0000
1010
0000
0100
0000
,
0010
0000
0000
0000
,
1101
0000
0000
0010
0100
0000
0001
0000
1020
0000
0000
0100
1000
0000
0001
0030
,
1200
0000
0000
0010
0001
0000
0010
0300
2001
0000
0000
0010
0100
0000
0010
3000
,
0102
0000
0000
1000
0010
0000
0100
0000
1000
0000
0000
0100
0010
0000
1000
0003
,
0210
0000
0000
0001
1000
0000
0010
0000
0001
0000
0000
0010
1000
0000
0001
0300
,
1010
0000
0000
0100
0001
0000
0010
0000
2100
0000
0000
0010
0001
0000
0010
3000
,
0102
0000
0000
1000
0010
0000
0100
0003
1020
0000
0000
0001
0100
0000
1000
0030
,
0201
0000
0000
1000
0010
0000
0001
0000
0010
0000
0000
0001
1000
0000
0010
0300
,
0001
0000
0010
0000
0100
0000
1000
0000
0100
0000
0010
0000
0001
0000
0010
0000
0100
0010
0100
0010
0100
0010
0100
0010
1000
0100
0010
0001
0010
0100
1000
0100
,
0011
0100
1000
0010
0001
0100
0010
0100
1000
0010
0001
0100
0010
0001
0010
0100
,
1000
0010
0100
1000
0100
0010
0001
0100
0010
0001
0010
0100
1000
0010
0100
0010
,
0001
1000
0100
0010
0001
0010
0100
1000
0100
0010
0100
0010
0001
0010
0100
1000
,
0100
0010
0100
0010
0001
0010
0100
1000
0010
0100
0010
0001
0010
0100
1000
0100
,
0010
0001
0100
0010
0001
0010
0100
1000
0100
0010
0100
0010
0001
0010
0100
0001
,
0010
0100
0001
0010
0100
1000
0100
0010
0100
0010
0001
0100
0010
0100
1000
0010
,
0100
0010
0001
0100
0000
0000
0010
0000
1000
0000
0000
0100
0001
0000
0010
0000
,
1200
0000
0000
0010
0001
0000
0010
0000
1000
0000
0000
0010
0001
0000
0010
0300
,
1002
0000
0000
0010
0100
0000
0010
0000
1000
0000
0000
0100
0010
0000
1100
0003
,
2020
0000
0000
0000
,
0000
0000
0000
0000
,
3030
0000
0000
0000
;
